#TITLE:Omnivision;
#SUBTITLE:;
#ARTIST:Platonist;
#TITLETRANSLIT:;
#SUBTITLETRANSLIT:;
#ARTISTTRANSLIT:;
#CREDIT:;
#BANNER:Omnivision-banner.png;
#BACKGROUND:Omnivision.png;
#LYRICSPATH:;
#CDTITLE:;
#MUSIC:097 - Platonist - Omnivision.mp3;
#OFFSET:-0.940;
#SAMPLESTART:100.000;
#SAMPLELENGTH:11.820;
#SELECTABLE:YES;
#BPMS:0.000=130.140;
#STOPS:;
#BGCHANGES:0.000=Omni=1.000=0=0=1,
99999=-nosongbg-=1.000=0=0=0 // don't automatically add -songbackground-
;
// cache tags:
#FIRSTBEAT:0.000;
#LASTBEAT:516.000;
#SONGFILENAME:Songs/Songfolder/097 - Platonist - Omnivision/097 - Platonist - Omnivision.sm;
#HASMUSIC:1;
#HASBANNER:1;
#MUSICLENGTH:243.826;
// end cache tags

//---------------dance-single - Copied from----------------
#NOTES:
     dance-single:
     Copied from:
     Challenge:
     10:
     0.664,0.767,1.000,0.295,0.597,759.000,302.000,72.000,226.000,3.000:
0010
0110
0001
1100
2020
3030
0022
0033
,
1010
0100
0001
0010
2002
3003
2020
3030
,
0010
0110
1001
0001
0200
0300
2020
3030
,
1001
0110
1100
0000
1001
0110
0000
100M
,
0M00
0000
0000
M010
0000
0000
000M
0000
0000
10M0
0100
0000
M000
0000
0000
00M1
0000
0000
0M00
0000
0000
010M
0000
0000
,
00M0
0000
0000
1M00
0000
0000
M000
0000
0000
0M01
0010
0000
M000
0000
0000
010M
0000
0000
0M00
0000
0000
M010
0000
0000
,
00M0
0000
0000
1M00
0000
0000
M000
0000
0000
0M10
0001
0000
000M
0000
0000
M100
0000
0000
0M00
0000
0000
M010
0001
0000
,
0M00
0000
0000
100M
0010
0000
0M00
0000
0000
01M0
1000
0000
M000
0000
0000
00M1
0100
0000
M000
0000
0000
0M10
0001
0000
,
00M0
0000
0000
100M
0000
0000
0M00
0000
0000
001M
1000
0000
00M0
0000
0000
M100
0000
0000
00M0
0000
0000
0M01
0000
0000
,
000M
0000
0000
M100
0000
0000
0M00
0000
0000
1M01
0010
0000
000M
0000
0000
M100
0000
0000
00M0
0000
0000
0M10
0000
0000
,
000M
0000
0000
1M00
0000
0000
M000
0000
0000
001M
0100
0000
00M0
0000
0000
M100
0000
0000
0M00
0000
0000
M010
0001
0000
,
0M00
0000
0000
00M1
1000
0000
0M00
0000
0000
M100
0010
0000
000M
0000
0000
10M0
0200
0000
000M
0000
0300
0000
0000
0000
,
1001
0000
0000
0110
0000
0000
1000
0000
0100
0000
0010
0000
0001
0000
0000
0100
0000
0000
1000
0000
0000
0000
0000
0000
,
1001
0000
0000
1010
0000
0000
0001
0000
0010
0000
0100
0000
1000
0000
0000
0010
0000
0000
0100
0000
0000
0000
0000
0000
,
1010
0000
0000
0101
0000
0000
1000
0000
0100
0000
0010
0000
0001
0000
0000
0010
0000
0000
0100
0000
0000
0000
0000
0000
,
0011
0000
0000
0110
0000
0000
0001
0000
0010
0000
0100
0000
1000
0000
0000
0100
0000
0000
0010
0000
0000
0000
0000
0000
,
0110
0000
0000
0110
0000
0000
0001
0000
0010
0000
0100
0000
1000
0000
0000
0100
0000
0000
0001
0000
0000
0000
0000
0000
,
1100
0000
0000
1100
0000
0000
1000
0000
0100
0000
0010
0000
1000
0000
0000
0100
0000
0000
1000
0000
0000
0000
0000
0000
,
1010
0000
0000
0101
0000
0000
1000
0000
0100
0000
0010
0000
1000
0000
0000
0100
0000
0000
1001
0000
0000
1010
0202
0000
,
0000
0000
0303
0000
0000
0000
1010
0000
0101
0000
0000
0000
0000
0000
0000
0101
2020
0000
0000
0000
3030
0000
0000
0000
,
1001
0101
1100
1010
,
0001
0010
0001
0100
1010
0000
0100
0000
,
1010
0101
0010
0110
1100
0000
1100
0000
,
1010
0000
0000
0101
0000
0000
0000
0000
0000
0000
0110
0000
1000
0000
0000
0000
0101
0000
1000
0000
0000
0000
0000
0000
,
0010
0100
0001
0100
0010
1000
0100
0010
,
1000
0110
0000
1000
0101
0000
0010
0000
0000
1000
0011
0000
,
1000
0110
0000
1000
0101
0000
2000
0000
0000
3000
0000
1001
,
1001
0000
0000
0000
0000
0000
0110
0000
0100
0000
0010
0000
0001
0000
0000
1000
0000
0000
110M
0000
0000
0000
0000
0000
,
1M10
0000
10M1
0100
M110
0000
01M1
0000
,
1M10
0010
M101
0001
11M0
0000
101M
0000
,
M011
0100
1M10
0001
11M0
0000
01M1
1000
,
022M
0000
0330
0000
1000
0010
0001
0000
,
0100
0000
1100
0000
1100
1100
0110
0011
,
0000
1001
1001
0000
0000
1010
1010
0000
0000
0000
1010
1010
,
0000
0000
0101
0101
0000
0000
0000
0110
0110
0000
0000
0101
,
0101
0010
0001
0100
,
1000
0000
0000
0010
0000
0000
1MM1
0101
0000
1MM1
0000
0000
,
0000
1001
0010
2002
3103
0010
0002
0103
0000
0000
1000
0000
,
0000
0001
0010
0002
0013
0100
2000
3100
0000
0000
1000
0000
,
0000
1000
0100
2002
3103
0010
0002
0013
0000
0000
0100
0000
,
0000
1100
1100
2000
3100
0010
0022
1033
0000
0000
0010
0000
,
0000
0001
0010
2000
3100
0010
0002
1003
0000
0000
0100
0000
,
0000
0001
0010
0002
0013
0100
2000
3001
0000
0000
0010
0000
,
0000
0100
1000
0002
0013
0100
2000
3100
0000
0000
1000
0000
,
0000
1000
0100
2000
3100
0010
0002
1003
0100
0000
1000
0000
,
0000
0000
0000
1010
0100
0010
0000
1001
1001
0000
0000
0000
,
0010
0010
00M0
0000
0100
0100
0M00
0000
0001
0001
000M
0000
,
0000
0010
0010
00M0
0000
1000
1000
M000
0000
0001
0010
0100
,
1000
0000
0000
0010
0000
0000
0100
0000
0000
0000
0000
0000
1000
0000
0000
0000
0000
0000
1000
0000
0100
0000
0010
0000
,
0001
0000
0000
0010
0000
0000
0001
0000
0000
0000
0000
0000
0000
0000
0110
0000
1001
0000
0000
0000
0110
0000
1001
0000
,
0000
0101
0000
0000
0100
0000
0000
1100
1010
0000
0001
1010
,
0000
0010
0000
0000
0110
0000
0000
0100
1010
0000
0100
0011
,
0000
0000
1100
0000
0000
0000
0000
0000
0100
0000
0000
0000
0000
0000
2002
0000
0000
0000
3003
0000
0000
1010
0000
0000
,
0101
0000
0000
0110
0000
0000
0000
0000
0010
0000
00M0
0000
0000
0000
1000
0000
1000
0000
M000
0000
0000
0000
1001
0000
,
1001
M00M
0000
0000
0010
0010
00M0
0000
1001
1001
M00M
M00M
,
0000
0100
0100
00M0
0000
1000
1000
0M00
0000
0000
1010
0101
,
0000
1100
0000
0000
1000
0000
0000
1MM1
0000
0000
1100
0000
,
0000
0000
0000
1100
0000
0000
0110
0000
0011
0000
0011
0000
0000
0000
0100
0000
0100
0000
0000
0000
0000
0000
0010
0000
,
0010
0000
0000
0000
0001
0001
0000
0000
0000
0010
0010
0000
,
0000
0100
0100
0000
0000
1000
1000
M00M
M00M
0000
M1M1
0000
,
0000
1000
0000
0000
MM11
0000
0000
0100
0000
0000
1MM0
0000
,
0000
0001
0M10
0000
0001
M010
0000
1001
1001
0000
0000
0000
,
0110
0110
0000
0000
1010
1010
0000
0000
0101
0101
0000
0000
,
0000
0110
0110
0000
0000
1010
1010
0000
1010
0101
0000
0000
,
0000
1100
0000
0000
1010
0000
0000
0011
0000
1100
1100
0010
,
0001
0000
0000
1010
0000
0000
0101
0000
0000
0110
0000
0000
0000
0000
0000
0000
00M1
0000
00M1
0000
0000
0000
0000
0000
,
00M1
0011
0000
0000
1M00
1100
0000
0000
01M0
0110
0000
0000
,
0000
0000
00M1
0000
0011
0000
0000
0000
0000
0000
0101
0000
0001
0000
0000
0110
0000
0000
1000
0000
0000
0010
0000
0000
,
0001
0110
1000
0010
0001
0010
1001
0110
,
0000
0000
0000
1010
0000
0000
0011
0000
0000
0110
0000
0000
1001
0000
0000
0220
0000
0000
0030
0000
0000
0000
0020
0000
,
0000
0000
0030
0300
0000
0000
2020
0000
0000
0000
0030
0000
0000
0000
0000
0020
0000
0000
0000
0000
0000
3030
0000
0000
,
0022
0000
0000
0000
0000
0000
0030
0000
0000
0000
0000
0000
0010
0000
0020
0003
0000
0000
1030
0000
0000
0110
0000
0000
,
1001
0000
0110
0000
0110
0000
1000
0000
0000
0010
0000
0000
0100
0000
0001
0000
0000
0000
1010
0000
0000
0000
0000
0000
,
1100
1010
0101
0011
0100
0110
1MM1
0000
,
1MM1
0110
0000
0110
1MM1
0000
1MM1
0110
,
0000
0110
1MM1
0000
1MM1
0110
1001
0100
,
0000
0010
0000
0100
1000
0010
0001
0100
,
0000
0000
0000
0010
0000
0000
0000
0000
0000
0100
0000
0000
1010
0000
1001
0000
0000
0000
0101
0000
0000
0000
0000
0000
,
1000
0110
0001
0101
0000
0011
1100
0110
,
0100
0010
0001
0000
0220
0000
0330
1100
,
1001
0000
0110
1100
0000
2020
0000
3000
,
0001
0100
1000
0100
0001
0000
0130
0000
,
0000
0000
0000
MM1M
0000
0000
1MMM
0000
MMM1
0000
MMMM
0000
0MMM
0000
1MMM
0000
0000
0000
0000
0000
0000
0000
0000
0000
,
MM1M
0000
0000
MMMM
0000
0000
M1MM
0000
0000
MMM1
0000
0000
1MMM
0000
0000
0000
M1MM
0000
0000
0000
0000
0000
0000
0000
,
2200
0000
0000
3300
0000
0000
1010
0000
0000
1001
1100
0000
,
0000
0110
0000
0000
0101
0000
1001
0000
,
0110
1100
0000
1010
0000
1001
0110
0000
,
1100
0000
0000
1100
0000
0000
0000
0000
0011
0000
0101
0000
1200
0000
0000
0000
0000
0000
0010
0000
0000
0000
0000
0000
,
0301
0000
1000
0000
M00M
1001
M00M
0000
,
0020
0100
0001
0100
0100
0000
0031
0000
,
0001
0000
0000
0010
0200
0000
1000
0000
0000
0001
0000
0000
,
0310
0000
0000
0010
0000
0000
1000
0100
0020
M001
0000
0000
,
M100
0000
0000
100M
0000
0000
M100
0030
0000
1010
1010
0000
,
0000
1100
0000
0011
0110
0000
1010
0000
0000
1100
0000
0000
,
0011
1200
0000
0001
0000
0010
1300
0000
,
0101
0020
1000
0000
0001
0000
0100
0000
,
0130
0000
0000
0000
0000
0000
1000
0000
0100
0000
0000
0000
1001
0000
0000
0010
0000
0000
0000
0000
0000
0000
0000
0000
,
1000
0100
0001
1000
0100
0000
0210
0000
,
0000
1000
1000
0000
0000
0001
0000
0000
,
0010
0000
0000
0000
0000
0000
0310
0000
0000
100M
0000
0000
100M
0000
1100
0000
0011
0000
0000
0000
0000
0000
0110
0000
,
2002
0000
3003
1010
M11M
0000
1MM1
0101
,
0000
1M1M
0000
0000
M1M1
0000
10MM
0000
,
110M
0010
0000
M1M1
0000
110M
01M1
0000
,
M110
0000
0000
0011
0000
0000
M10M
0000
0000
0000
0000
0000
1001
0000
0000
0001
0000
0000
0001
0000
0000
0001
0100
0000
,
0010
0000
0000
1000
0000
0000
1000
0000
0000
1000
0100
0000
0010
0000
0000
0001
0000
0000
0001
0000
0000
0001
0100
0000
,
1010
0010
0100
1000
0100
0000
0010
0000
,
0000
0101
0000
0101
1010
0000
1010
0000
2020
0000
3030
0000
,
1002
0000
0000
0100
0000
0100
0010
0103
0000
0000
0000
0000
,
0110
0000
0000
1001
0000
0000
1010
0000
0000
1001
0000
0000
1100
0000
0000
0000
0000
0000
1100
0000
0100
0000
0000
0000
,
0000
0000
0101
0000
0000
0001
0000
0000
0010
0100
0000
0001
,
0010
0000
0100
0000
0000
0001
0000
0000
0010
0100
0000
1000
,
0001
0000
0100
0000
0000
0010
0000
0000
1000
0001
0000
0100
,
0010
0000
1001
0000
0000
1100
0000
0000
1010
0011
0000
0100
,
0101
0000
1100
0000
0000
1010
0000
0000
0011
0110
0000
1010
,
0001
0000
1100
0000
0110
0000
0000
0000
1010
0000
0000
0000
,
0011
0000
0000
1100
0000
1010
1001
0000
1100
0000
0000
0000
,
2200
3000
0000
0000
0000
0000
2000
3000
0000
0300
1010
1010
,
0000
0000
0000
0000
0102
0000
0000
0000
0003
0000
0000
0000
0000
0000
0000
1100
0000
0000
0000
0000
0000
0000
0000
0000
,
0021
0100
0000
100M
0000
0000
M100
0000
0000
0M01
0000
0000
,
010M
1000
0000
0M01
0000
0000
M100
0000
0000
100M
0000
0000
,
1M00
0001
0000
M100
0000
0000
M001
0100
0000
1M00
0001
0000
,
010M
1000
0000
1M00
0001
0000
M001
0100
0000
010M
0000
0000
,
1M00
0001
0000
M100
0000
0000
1M00
0000
0000
0M01
0000
0000
,
M001
0100
0000
100M
0000
0000
010M
0000
0000
0M01
0000
0000
,
1M00
0001
0000
M100
0000
0000
100M
0100
0000
M001
0100
0000
,
100M
0100
0000
100M
0100
0000
100M
0130
0000
0000
0000
1010
,
0000
0000
0000
1001
1000
0000
0000
1000
1010
0000
0000
0000
,
0011
0010
0000
0000
0000
0110
0100
0000
0000
0101
0100
0000
,
0000
0000
1000
1100
0000
0000
0100
0110
0000
0000
1001
0110
;

//---------------dance-single - Copied from Copied f----------------
#NOTES:
     dance-single:
     Copied from Copied f:
     Hard:
     7:
     0.616,0.899,1.000,0.135,0.545,732.000,286.000,33.000,33.000,1.000:
0110
0110
1001
1001
2002
3003
0220
0330
,
1010
0101
1010
0101
2002
3003
2002
3003
,
0110
0110
1001
1001
2002
3003
2002
3003
,
0001
0010
0100
0000
0110
0110
0000
1010
,
0000
0000
0000
0110
0000
0000
0000
0000
0000
1001
1001
0000
0000
0000
0000
0101
0000
0000
0000
0000
0000
1100
0000
0000
,
0000
0000
0000
1010
0000
0000
0000
0000
0000
0101
0101
0000
0000
0000
0000
1100
0000
0000
0000
0000
0000
0110
0000
0000
,
0000
0000
0000
1001
0000
0000
0000
0000
0000
1001
1001
0000
0000
0000
0000
0101
0000
0000
0000
0000
0000
1010
1010
0000
,
0000
0000
0000
1010
1010
0000
0000
0000
0000
1010
1010
0000
0000
0000
0000
1010
1010
0000
0000
0000
0000
1010
1010
0000
,
0000
0000
0000
1100
0000
0000
0000
0000
0000
0011
0011
0000
0000
0000
0000
0110
0000
0000
0000
0000
0000
1001
0000
0000
,
0000
0000
0000
0101
0000
0000
0000
0000
0000
0110
0110
0000
0000
0000
0000
1100
0000
0000
0000
0000
0000
0110
0000
0000
,
0000
0000
0000
1001
0000
0000
0000
0000
0000
0101
0101
0000
0000
0000
0000
1100
0000
0000
0000
0000
0000
0011
0011
0000
,
0000
0000
0000
0011
0011
0000
0000
0000
0000
0011
0011
0000
0000
0000
0000
0101
0202
0000
0000
0000
0303
0000
0000
0000
,
1000
0000
0000
0100
0000
0000
1000
0000
0100
0000
0010
0000
0001
0000
0000
0010
0000
0000
0001
0000
0000
0000
0000
0000
,
0001
0000
0000
0010
0000
0000
0001
0000
0010
0000
0100
0000
1000
0000
0000
0100
0000
0000
1000
0000
0000
0000
0000
0000
,
1000
0000
0000
0100
0000
0000
1000
0000
0100
0000
0010
0000
0001
0000
0000
0010
0000
0000
0001
0000
0000
0000
0000
0000
,
1001
0000
0000
0010
0000
0000
0001
0000
0010
0000
0100
0000
1000
0000
0000
0100
0000
0000
1000
0000
0000
0000
0000
0000
,
1000
0000
0000
0100
0000
0000
0001
0000
0010
0000
0100
0000
1000
0000
0000
0100
0000
0000
0010
0000
0000
0000
0000
0000
,
0100
0000
0000
0100
0000
0000
0100
0000
0100
0000
0010
0000
1000
0000
0000
0100
0000
0000
0010
0000
0000
0000
0000
0000
,
1000
0000
0000
0100
0000
0000
0010
0000
0100
0000
0010
0000
1000
0000
0000
0100
0000
0000
1000
0000
0000
1000
0100
0000
,
0000
0000
0000
0000
0000
0000
0010
0000
0001
0000
0000
0000
0000
0000
0000
0001
0010
0000
0000
0000
0000
0000
0000
0000
,
1001
1001
0110
0110
,
0100
0010
0001
0100
0010
0000
1000
0000
,
1000
0100
0010
1000
0100
0000
0010
0000
,
0001
0000
0000
1001
0000
0000
0000
0000
0000
0000
0010
0000
1000
0000
0000
0000
0100
0000
0010
0000
0000
0000
0000
0000
,
1010
1010
0101
0101
1010
1010
0110
0110
,
1000
0100
0000
1000
0100
0000
1000
0000
0000
0101
0000
0000
,
1010
0000
0000
0110
0000
0000
1001
0000
0000
0000
0000
1001
,
1001
0000
0000
0000
0000
0000
0010
0000
0100
0000
0010
0000
0100
0000
0000
0010
0000
0000
1100
0000
0000
0000
0000
0000
,
0011
0000
1100
0011
0011
0000
0100
0000
,
1000
0010
0001
0100
1100
0000
0011
0000
,
0110
0110
1001
1001
0110
0000
0110
1001
,
2002
0000
3003
0000
1100
0110
0011
0000
,
0100
0000
0100
0000
0100
0010
0100
0010
,
0000
1001
1001
0000
0000
1010
0000
0000
0000
0000
1010
1010
,
0000
0000
0101
0000
0000
0000
0000
0110
0110
0000
0000
0101
,
0000
0110
0011
0110
,
1100
0000
0000
0010
0000
0000
1000
0100
0000
1000
0000
0000
,
0000
1000
1000
1000
0100
0010
0001
1000
0000
0000
1000
0000
,
0000
0001
0001
0001
0010
0100
1000
0001
0000
0000
0001
0000
,
0000
1000
1000
1000
0100
0010
0001
0001
0000
0000
0100
0000
,
0000
0010
0100
1000
0100
0010
0001
0001
0000
0000
0001
0000
,
0000
1000
1000
1000
0100
0010
0001
1000
0000
0000
1000
0000
,
0000
1000
1000
1000
0100
0010
0001
0001
0000
0000
0001
0000
,
0000
1000
1000
1000
0100
0010
0001
0001
0000
0000
0001
0000
,
0000
0001
0010
0001
0010
0100
1000
1000
0100
0000
1000
0000
,
0000
0000
0000
1000
0100
0010
0000
0000
0110
0000
0000
0000
,
0001
0010
0000
0000
1000
0100
0000
0000
0010
0001
0000
0000
,
0000
0100
0010
0000
0000
1000
0100
0000
0000
0001
0010
0100
,
1000
0000
0000
1001
0000
0000
1001
0000
0000
0001
0010
0100
,
1000
0000
0000
1000
0000
0000
0000
0110
1001
0000
0110
1001
,
0000
0100
0000
0000
0100
0000
0000
1001
0110
0000
1001
0110
,
0000
0010
0000
0000
0010
0000
0000
0101
0101
0000
1010
1010
,
0000
0000
0100
0000
0000
0000
0000
0000
0100
0000
0000
0000
0000
0000
0110
0000
0000
0000
0000
0000
0000
0010
0000
0000
,
0100
0000
0000
0110
0000
0000
0000
0000
0110
0000
0000
0000
0000
0000
1100
0000
0000
0000
0000
0000
0000
0000
0011
0000
,
0000
0000
0000
0000
0110
0000
0000
0000
1001
0000
0000
0000
,
0000
0110
0000
0000
0000
1100
0000
0000
0000
0000
0011
0000
,
0000
1100
0000
0000
0010
0000
0000
0001
0000
0000
0010
0000
,
0000
0000
0000
1000
0000
0000
0100
0000
0001
0000
0001
0000
0000
0000
1100
0000
1100
0000
0000
0000
0000
0000
0000
0000
,
0MM0
0000
0000
0000
0011
0011
0000
0000
0000
0MM0
0000
0000
,
0000
1100
1100
0000
0000
0000
0MM0
0000
1001
0000
1001
0000
,
0000
0110
0000
0000
0011
0000
0000
1100
0000
0000
1001
0000
,
0000
0001
0010
0000
0001
0010
0000
0010
0110
0000
0000
0000
,
0100
0100
0000
0000
0010
0010
0000
0000
0100
0100
0000
0000
,
0000
0001
0001
0000
0000
1000
1000
0000
0110
0110
0000
0000
,
0000
0100
0000
0000
1000
0000
0000
0001
0000
0100
1000
0100
,
0001
0000
0000
0010
0000
0000
0101
0000
0000
0010
0000
0000
0000
0000
0000
0000
1001
0000
1001
0000
0000
0000
0000
0000
,
0011
0011
0000
0000
1100
1100
0000
0000
0011
0011
0000
0000
,
0000
0000
1100
0000
1100
0000
0000
0000
0000
0000
0011
0000
0011
0000
0000
0000
0000
0000
1000
0000
0000
0100
0000
0000
,
0001
0100
1000
0010
0001
0010
1000
0100
,
0000
0000
0000
0010
0000
0000
0001
0000
0000
0010
0000
0000
1001
0000
0000
0110
0000
0000
0000
0000
0000
0000
1000
0000
,
0000
0000
0010
0000
0000
0100
0000
0000
,
0001
0000
0000
0000
0000
0000
0000
0000
0000
0000
0000
0000
0110
0000
0220
0000
0000
0000
1331
0000
0000
0010
0000
0000
,
1001
0000
0010
0000
0010
0000
1001
0000
0000
0110
0000
0000
0110
0000
0000
0000
0000
0000
0110
0000
0000
0000
0000
0000
,
010M
1000
M001
0010
010M
0010
1M00
0000
,
00M1
0100
M000
0010
0M01
0000
M101
0010
,
0M00
0001
10M0
0000
M101
0100
M001
0010
,
000M
0010
M000
0100
100M
0010
M001
0100
,
000M
0000
0000
0010
0000
0000
00M0
0000
0000
0100
0000
0000
0010
0000
0001
0000
0000
0000
0001
0000
0000
0000
0000
0000
,
1001
0110
1001
0110
0000
0110
1100
0011
,
1100
0011
0110
0000
0110
0000
0000
0100
,
1001
0000
0100
0100
0000
0010
0000
0000
,
0010
0100
1000
0100
0010
0000
0100
0000
,
0000
0000
0000
0M10
0000
0000
100M
0000
0001
0M00
0000
0000
0000
0000
1000
00M0
0000
0000
0000
0000
0000
0000
0000
0000
,
M010
0000
0000
000M
0000
0000
10M0
0000
0000
M001
0000
0000
0M10
0000
0000
0000
0100
0000
0000
0000
0000
0000
0000
0000
,
0110
0110
0000
0000
0000
0000
1010
0000
0000
0000
0110
0000
,
0000
0110
0000
0000
0101
0000
0001
0000
,
0010
0100
0000
0110
0000
1001
0110
0000
,
1001
0000
0000
1001
0000
0000
0000
0000
0001
0000
0001
0000
2200
0000
0000
0000
0000
0000
0000
0000
0000
0000
0000
0000
,
3300
0000
0010
0000
0000
0100
0000
0000
,
0010
1000
0001
0010
0100
0000
1000
0000
,
0001
0000
0000
0010
0101
0000
1001
0000
0000
0001
0000
0000
,
0010
0000
0000
0100
0000
0000
1000
0100
0010
0001
0000
0000
,
1100
0000
0000
1100
0000
0000
0100
0000
0000
1000
0100
0000
,
0000
1000
0000
0100
0010
0000
0001
0000
0000
1100
0000
0000
,
1100
1100
0000
0100
0000
0010
0001
0000
,
0010
0010
1000
0000
0001
0000
0010
0000
,
0100
0000
1000
0000
1000
0100
0000
0000
,
1000
0100
0001
1000
0010
0000
0110
0000
,
0000
1010
1010
0000
0000
0110
0000
0000
,
0011
0000
0000
0000
0000
0000
0011
0000
0000
0100
0000
0000
1000
0000
0100
0000
0010
0000
0000
0000
0000
0000
0010
0000
,
1001
0000
0000
2010
3010
0000
2001
3001
,
0000
2020
3030
0000
0102
0000
1003
0000
,
2100
3010
0000
0102
0000
1003
0201
0000
,
0310
0012
0103
0000
2001
3001
2001
3001
,
0010
0000
0000
1000
0000
0000
0100
0000
0000
1000
0100
0000
0010
0000
0000
0001
0000
0000
0010
0000
0000
0001
0000
0000
,
0001
0010
0100
1000
0100
0000
1000
0000
,
0000
0100
0000
0100
0010
0000
0210
0000
0020
0000
0330
0000
,
0010
0000
0000
0100
0000
0100
0010
0110
0000
0000
0000
0000
,
0110
0000
0000
1001
0000
0000
0110
0000
0000
1001
0000
0000
0110
0000
0000
0000
0000
0000
0110
0000
0110
0000
0000
0000
,
0000
0000
0110
0000
0000
0100
0000
0000
0010
0100
0000
0001
,
0010
0000
0001
0000
0000
0001
0000
0000
0010
0001
0000
1000
,
1000
0000
0100
0000
0000
1000
0000
0000
1000
0100
0000
0100
,
0001
0000
0001
0000
0000
0010
0000
0000
0001
0001
0000
0110
,
0110
0000
0110
0000
0000
0110
0000
0000
0001
0010
0000
0100
,
1000
0000
1000
0000
0100
0000
0000
0000
0110
0000
0000
0000
,
0110
0000
0000
1001
0000
0110
1001
0000
0110
0000
0000
0000
,
0100
0000
0000
0100
0000
0000
0100
0000
0000
0100
0000
0010
,
0000
0000
0000
0000
0110
0000
0000
0000
0000
0000
0000
0000
0000
0000
0000
1001
0000
0000
0000
0000
0000
0000
0000
0000
,
0010
0100
0000
1001
0000
0000
0100
0000
0000
0011
0000
0000
,
0100
1000
0000
1001
0000
0000
0010
0000
0000
1010
0000
0000
,
0001
0001
0000
0110
0000
0000
0001
0100
0000
1010
0001
0000
,
0100
1000
0000
1010
0001
0000
0001
0100
0000
0110
0000
0000
,
1000
0001
0000
0101
0000
0000
1000
0000
0000
0011
0000
0000
,
0001
0100
0000
1100
0000
0000
0100
0000
0000
1001
0000
0000
,
0010
0001
0000
0110
0000
0000
1000
0100
0000
0011
0100
0000
,
1000
0100
0000
1010
0100
0000
1000
0100
0000
0000
0000
1010
,
0000
0000
0000
1001
1001
0000
0000
1010
1010
0000
0000
0000
,
0110
0110
0000
0000
0000
0110
0110
0000
0000
0101
0101
0000
,
0000
0000
0101
0101
0000
0000
0011
0011
0000
0000
0110
0110
;

//---------------dance-single - Copied from Copied f----------------
#NOTES:
     dance-single:
     Copied from Copied f:
     Medium:
     3:
     0.398,0.556,0.295,0.094,0.320,585.000,72.000,23.000,0.000,0.000:
0010
0100
0001
1000
2002
3003
2002
3003
,
0100
0010
0100
0010
0110
0000
0110
0000
,
0010
0100
1000
1000
0101
0000
1010
0000
,
0100
0010
0100
0000
1001
0110
0000
0010
,
0000
0100
0000
1001
0000
0010
0000
0001
,
0000
1000
0000
0100
0000
0001
0000
0100
,
0000
1000
0000
0010
0000
0100
0000
0001
,
0000
0100
0000
1000
0000
0010
0000
0001
,
0000
0100
0000
0001
0000
0010
0000
1000
,
0000
0001
0000
0100
0000
1000
0000
0010
,
0000
0001
0000
0100
0000
1000
0000
0010
,
0000
0100
0000
0010
0000
0200
0000
0300
,
1000
0100
1000
0100
0001
0010
0001
0000
,
1000
0100
1000
0100
0001
0010
0001
0000
,
1001
0100
1000
0100
0001
0010
1001
0000
,
1001
0100
1000
0100
0001
0010
1001
0000
,
1001
0000
1000
0000
0001
0010
0001
0000
,
1001
0000
1000
0000
0001
0010
0001
0000
,
1001
0000
0010
0000
0010
0100
0010
0100
,
0000
0000
0110
0000
0000
1001
0000
0000
,
0100
0010
0100
0010
,
0100
0010
0010
0100
0010
0000
0010
0000
,
1000
0100
1000
0100
1000
0000
1000
0000
,
0001
0000
0000
0001
0000
0000
0000
0000
0000
0000
0100
0000
1000
0000
0000
0000
0100
0000
0010
0000
0000
0000
0000
0000
,
0010
0000
0100
1000
1000
1000
0100
0001
,
1000
0100
0000
1000
0100
0000
1000
0000
0000
1100
0000
0000
,
1100
0000
1100
0000
2002
3003
0000
0000
,
2002
3003
0010
0000
0100
0010
0100
0000
,
1000
0000
0100
1000
0100
0000
0100
0000
,
0001
0010
0001
0010
0010
0000
0010
0000
,
0100
0100
0010
0010
0100
0000
0100
1000
,
1000
0000
0000
0000
1000
0100
0010
0000
,
0001
0000
0001
0000
0001
0010
0001
0010
,
0000
1010
0000
0000
0000
1010
0000
0000
0000
0000
1010
0000
,
0000
0000
0101
0000
0000
0000
0000
0101
0000
0000
0000
0101
,
0000
0000
1000
0000
0000
0100
0000
0000
0010
0000
0000
0001
,
0000
0000
0010
0000
0000
0100
0000
0000
1000
0000
0000
0000
,
0000
1000
1000
1000
0000
0001
0001
0000
0000
0000
0000
0000
,
0000
0001
0001
0001
0000
1000
1000
0000
0000
0000
0000
0000
,
0000
1000
1000
1000
0000
0001
0001
0000
0000
0000
0000
0000
,
0000
0001
0001
0001
0000
0000
0000
1000
1000
0000
0000
0000
,
0000
1000
1000
1000
0000
0010
0010
0000
0000
0000
0000
0000
,
0000
0100
0100
0100
0000
0000
0000
0010
0010
0000
0000
0000
,
0000
0100
0100
0100
0000
0000
0000
0001
0001
0000
0000
0000
,
0000
1000
1000
1000
0000
0000
0000
0001
0001
0000
0000
0000
,
0000
0000
0000
1000
1000
1000
0000
0001
0001
0000
0000
1000
,
1000
0000
0000
0000
1000
1000
0000
0000
0001
0001
0000
0000
,
0010
0010
0000
0000
0000
1000
1000
0000
0000
1000
0000
0000
,
1000
0001
0001
1000
,
1000
0000
0000
0000
0000
0000
0000
0220
0000
0330
1001
0000
,
0000
0100
0000
0000
0100
0000
0000
1001
0000
0000
0110
0000
,
0000
0010
0000
0000
0010
0000
0000
1010
0000
0000
0101
0000
,
0000
0010
0000
0000
0100
0000
0000
0110
0000
0000
0010
0000
,
0000
0010
0000
0000
0100
0000
0000
1000
0000
0000
0000
0010
,
0000
0000
0000
0000
0100
0000
0000
0000
0001
0000
0000
0000
,
0000
0100
0000
0000
0000
1000
0000
0000
0000
0000
0010
0000
,
0000
1000
0000
0000
0010
0000
0000
0001
0000
0000
0010
0000
,
0000
0000
0000
0100
0000
0000
0100
0000
0001
0000
0000
0000
0000
0000
2200
0000
0000
0000
0000
0000
0000
0000
3300
0000
,
0000
0000
0000
0000
0022
0000
0000
0000
0033
0000
0000
0000
,
0000
2200
0000
0000
0000
3300
0000
0002
0000
0000
0003
0000
,
0000
0100
0000
0000
0010
0000
0000
0100
0000
0000
0001
0000
,
0000
0001
0010
0000
0001
0010
0000
0001
0010
0000
0000
0000
,
1100
0000
0000
0000
0011
0000
0000
0000
1100
0000
0000
0000
,
0000
0011
0000
0000
0000
1100
0000
0000
0011
0000
0000
0000
,
0000
0100
0000
0000
1000
0000
0000
1000
0100
0000
1000
0000
,
0000
0000
0000
0010
0000
0000
0001
0000
0000
0010
0000
0000
0000
0000
1001
0000
0000
0000
0000
0000
0000
0000
0000
0000
,
0110
0000
0000
0000
1001
0000
0000
0000
0110
0000
0000
0000
,
0000
0000
1001
0000
0000
0000
0000
0000
0000
0000
0110
0000
0000
0000
0000
0000
0000
0000
1000
0000
0000
0100
0000
0000
,
1000
0100
0001
0010
0001
0010
1000
0100
,
1000
0000
0000
0100
0000
0000
0001
0000
0000
0010
0000
0000
0001
0000
0000
0010
0000
0000
0000
0000
0000
0000
0100
0000
,
0000
0000
0010
0000
0000
0100
0000
0000
,
0010
0000
0000
0000
0000
0000
0000
0000
0000
0000
0000
0000
0000
0000
0110
0000
0000
0000
0010
0000
0000
0100
0000
0000
,
1000
0000
1000
0100
0010
0000
0010
0000
,
0100
0010
0101
0010
0100
0010
1000
0000
,
0001
0100
0000
0010
0100
0000
0010
0100
,
0000
0010
1001
0000
0010
0100
0100
0010
,
0000
0010
0000
0100
0100
0010
0010
0100
,
0100
0010
0000
0100
0010
0000
0110
0000
,
1000
0010
0001
0010
0000
0100
1000
0100
,
0010
0001
0010
0000
0100
0000
0000
0100
,
1001
0000
0010
0100
0000
0010
0000
0000
,
0010
0100
0010
0100
0010
0000
0100
0000
,
0000
0000
0000
0010
0000
0000
0010
0000
0001
0000
0000
0000
0000
0000
0001
0000
0000
0000
0000
0000
0000
0000
0000
0000
,
1000
0000
0000
0000
0000
0000
1000
0000
0000
0100
0000
0000
1000
0000
0000
0000
0100
0000
0000
0000
0000
0000
0000
0000
,
0100
0000
0000
0000
0000
0000
0100
0000
0000
0000
0010
0000
,
0000
0010
0000
0000
0100
0000
1000
0000
,
0100
0001
0000
0010
0000
0001
1000
0000
,
0100
0010
0000
0000
2200
0000
0000
0000
,
3300
0000
0010
0000
0000
0100
0000
0000
,
0010
0010
0010
0010
0100
0000
0100
0000
,
0010
0000
0000
0010
0001
0000
0010
0000
0000
0001
0000
0000
,
0010
0001
0001
1000
,
0100
0010
0001
0001
,
0000
0010
1001
1000
,
1000
0100
0000
0100
0000
0100
0010
0000
,
0010
0001
1001
0000
1001
0000
0100
0000
,
0100
0000
0010
0000
0010
0100
0000
0000
,
1000
0100
0010
0001
0010
0000
1001
0000
,
0000
1001
0010
0000
0000
0100
0000
0000
,
0010
0000
0010
0100
1000
0000
0000
0000
,
1000
0000
0000
0000
0010
0000
0000
0100
,
0000
0010
0000
0000
0100
0000
1001
0000
,
0100
0010
0000
0100
0000
1000
0100
0000
,
0010
0010
0100
0000
0020
0000
0030
0000
,
0010
0000
0100
0000
0000
0001
0000
0000
,
0001
0010
0100
1000
1000
0000
0110
0000
,
0000
0100
0000
0100
0010
0000
0010
0000
0010
0000
0000
0000
,
0010
0100
0100
0100
,
0100
0000
0000
0110
0000
0000
0100
0000
0000
0010
0010
0000
,
0000
0000
1001
0000
0000
1001
0000
0000
0010
0000
0000
0001
,
0010
0000
0001
0000
0000
0001
0000
0000
1000
0000
0000
1000
,
0100
0000
1000
0000
0000
1000
0000
0000
0010
0000
0000
0010
,
0100
0000
0010
0000
0000
0010
0000
0000
1000
0000
0000
1000
,
0100
0000
1000
0000
0000
0100
0000
0000
0001
0000
0000
0100
,
0010
0000
0010
0000
0010
0000
0000
0000
0010
0000
0000
0000
,
0110
0000
0000
1000
0000
0100
0010
0000
0001
0000
0000
0000
,
0100
0000
0000
0100
0000
0000
0100
0000
0000
0100
0000
0010
,
0000
0000
0000
0000
0110
0000
0000
0000
0000
0000
0000
0000
0000
0000
0000
1001
0000
0000
0000
0000
0000
0000
0000
0000
,
0010
0001
0100
1000
,
0010
0100
0001
1000
,
0010
0010
0001
1000
,
0100
0010
1000
0010
,
1000
0001
0100
0010
,
1000
0010
0001
0100
,
0010
0010
1000
0010
,
0001
0000
0000
1000
0000
0000
0010
0000
0000
0000
0000
1010
,
0000
0000
0000
0100
0000
0000
0000
0010
0010
0000
0000
0000
,
0010
0000
0000
0000
0000
0100
0100
0000
0000
0010
0000
0000
,
0000
0000
0001
0001
0000
0000
0010
0000
0000
0000
0220
0000
,
0330
0000
0000
0000
;

//---------------dance-single - Copied from Copied f----------------
#NOTES:
     dance-single:
     Copied from Copied f:
     Easy:
     2:
     0.322,0.370,0.230,0.111,0.250,466.000,56.000,27.000,0.000,0.000:
0010
0100
0010
0100
0010
0000
0010
0000
,
1000
0100
1000
0100
1000
0000
1000
0000
,
0010
0100
0010
0100
0010
0000
0010
0000
,
0001
0010
0001
0000
1001
0000
0000
0100
,
0000
0100
0000
0001
0000
0001
0000
1000
,
0000
1000
0000
0100
0000
0100
0000
0001
,
0000
0001
0000
0010
0000
0010
0000
1000
,
0000
1000
0000
0010
0000
0010
0000
0001
,
0000
0001
0000
0010
0000
0010
0000
1000
,
0000
1000
0000
0010
0000
0010
0000
0001
,
0000
0001
0000
0100
0000
0100
0000
0010
,
0000
0010
0000
0100
0000
0100
0000
0000
,
1000
0000
1000
0000
0100
0010
0100
0000
,
0001
0000
0001
0000
0100
0010
0100
0000
,
1000
0000
1000
0000
0010
0100
0010
0000
,
1000
0000
1000
0000
0001
0010
0001
0000
,
1000
0000
1000
0000
0100
0010
0100
0000
,
0010
0000
0000
0000
0100
0010
0100
0000
,
0010
0000
0000
0000
0010
0100
0010
0000
,
0000
0000
0010
0000
0000
0010
0000
0000
,
0010
0010
0010
0010
,
1000
0000
1000
0100
0001
0000
0001
0000
,
1000
0000
1000
0100
0001
0000
0001
0000
,
1001
0000
0000
0000
0000
0100
0010
0000
,
0010
0100
1000
0100
,
1000
0000
0000
0010
0000
0000
0100
0000
,
0000
1000
0000
0000
0010
0000
0000
0000
,
0010
0000
0010
0000
0100
0010
0100
0000
,
1000
0100
0010
0100
,
0001
0000
0001
0010
0100
0000
1000
0000
,
0100
0000
0010
0000
0010
0000
0100
1000
,
0100
0000
1000
0010
,
0001
0001
1001
1001
,
0000
0010
0000
0000
0000
1000
0000
0000
0000
0000
0010
0000
,
0000
0000
0001
0000
0000
0000
0000
0100
0000
0000
0000
0002
,
0000
0000
0000
0003
0000
0000
0000
0000
0010
0000
0000
0000
,
0020
0000
0000
0000
0000
0000
0000
0030
0000
0000
0000
0000
,
0000
0010
0100
1000
0000
0000
1001
0000
0000
0000
0000
0000
,
0000
0001
0010
0100
0000
0000
1001
0000
0000
0000
0000
0000
,
0000
1000
0100
0010
0000
0000
1001
0000
0000
0000
0000
0000
,
0000
0001
0010
0100
0000
0000
1001
0000
0000
0000
0000
0000
,
0000
1000
0100
0010
0000
0000
1001
0000
0000
0000
0000
0000
,
0000
0001
0010
0100
0000
0000
1001
0000
0000
0000
0000
0000
,
0000
1000
0100
0010
0000
0000
1001
0000
0000
0000
0000
0000
,
0000
1000
0100
0010
0000
0000
1001
0000
0000
0000
0000
0000
,
0000
0000
0000
0001
0010
0000
0000
1001
0000
0000
0000
1001
,
0000
0000
0000
0000
0110
0000
0000
0000
0110
0000
0000
0000
,
1001
0000
0000
0000
0000
1001
0000
0000
0000
0100
0000
0000
,
0100
0100
0010
0010
,
0010
0000
0000
0000
0000
0000
0000
0020
0030
0000
0000
0200
,
0300
0000
0000
0000
0020
0030
0000
0000
0200
0000
0300
0000
,
0000
0020
0000
0000
0030
0000
0000
1000
0000
0000
0001
0000
,
0000
0010
0000
0000
1000
0000
0000
1001
0000
0000
0010
0000
,
0000
0010
0000
0000
0100
0000
0000
1000
0000
0000
0000
0100
,
0000
0000
0000
0000
0100
0000
0000
0000
0001
0000
0000
0000
,
0000
0001
0000
0000
0000
1000
0000
0000
0000
0000
1000
0000
,
0000
0010
0000
0000
0010
0000
0000
0001
0000
0000
0001
0000
,
0000
0001
0001
0000
0001
0000
0000
0200
0000
0300
0000
0000
,
0000
0000
0000
0000
0020
0000
0030
0000
0000
0000
0000
0000
,
0000
0200
0000
0300
0000
0000
0000
0002
0000
0003
0000
0000
,
0000
0100
0000
0000
0010
0000
0000
0100
0000
0000
0001
0000
,
0000
0001
0000
0000
0001
0000
0000
0001
0000
0000
0000
0000
,
1001
0000
0000
0000
1001
0000
0000
0000
0110
0000
0000
0000
,
0000
0110
0000
0000
0000
1001
0000
2002
0000
0000
0000
0000
,
3003
0000
0000
0000
0000
0000
0000
0220
0000
0000
0000
0330
,
0000
0000
0000
0000
0000
0000
0000
2000
0000
3000
0000
0000
,
0200
0000
0300
0000
2000
0000
3000
0000
0200
0000
0300
0000
,
0000
0002
0000
0003
0000
0020
0000
0030
0000
0100
0000
0000
,
0100
0010
0010
1000
,
1000
0000
0000
0000
0000
0000
0000
0110
0000
0000
0000
0110
,
0000
0000
0110
0000
0000
0110
0000
0000
,
0110
0000
0000
0000
0000
0000
0000
0000
0000
0110
0000
0000
0000
0000
0110
0000
0000
0000
0000
0000
0000
0200
0000
0000
,
0000
0000
0000
0300
0000
0020
0000
0000
,
0000
0000
0030
0000
0000
0010
0000
0000
,
1000
0000
0000
0100
0000
0000
0010
0000
,
0000
0010
0000
0000
0010
0200
0000
0000
,
0300
0000
0000
0000
0000
0100
0010
0000
,
0100
0010
0000
0100
0010
0000
1001
0000
,
1000
0010
0000
0010
0000
0100
0010
0100
,
0010
0100
0010
0000
1000
0000
0000
0000
,
1000
0000
0010
0000
0000
0010
0000
0000
,
0001
0010
0001
0010
0001
0000
0100
0000
,
0000
0000
0000
0100
0000
0000
0100
0000
0000
0000
0000
0000
0000
0000
0020
0000
0000
0000
0000
0000
0030
0000
0000
0000
,
1000
0000
1000
0100
0010
0000
0000
0000
,
0010
0000
0000
0000
0000
0000
0100
0000
0000
0000
0010
0000
,
0000
0010
0000
0000
0100
0000
1000
0000
,
0100
0010
0000
0100
0000
0010
0100
0000
,
0100
0010
0000
0000
1001
0000
0000
0000
,
0000
0000
0110
0000
0000
1001
0000
0000
,
0100
0010
0100
0010
0100
0000
0100
0000
,
0000
0010
0000
0010
0000
0000
0000
0010
0000
0000
0000
0000
,
0010
0000
0000
0001
0000
0000
0000
1001
0000
0000
0000
0000
,
0100
0000
0000
0000
0000
0000
0010
0000
0000
0000
0001
0000
,
0000
0000
2002
3003
,
1000
0100
0000
0100
0000
0100
0010
0000
,
0010
1000
0100
0000
0100
0000
0100
0000
,
0100
0000
0010
0000
0010
0100
0000
0000
,
1000
0100
1000
0100
1000
0000
0100
0000
,
0000
0100
0010
0000
0000
0100
0000
0000
,
0010
0010
0010
0000
,
1001
0000
0000
0000
0010
0000
0000
0100
,
0000
0010
0000
0000
0100
0000
1001
0000
,
0100
0010
0000
0100
0000
1000
0100
0000
,
0010
0001
0100
0000
0010
0000
0000
0000
,
0000
0000
0100
0000
0000
0010
0000
0000
,
0100
0010
0100
0010
0100
0000
1001
0000
,
0000
0100
0000
0000
0010
0000
0000
0000
0010
0000
0000
0000
,
0010
0000
0100
0000
0000
0100
0000
0000
,
0100
0000
0000
0000
0000
0000
0100
0000
0000
0010
0010
0000
,
0000
0110
0000
0000
0110
0000
0000
1001
0000
0000
0000
0001
,
0010
0000
0001
0000
0000
0000
0000
0000
1001
0000
0000
1000
,
0100
0000
1000
0000
0000
0000
0000
0000
1001
0000
0000
0001
,
0010
0000
0001
0000
0000
0000
0000
0000
1001
0000
0000
1000
,
0100
0000
1000
0000
0000
0000
0000
0000
1001
0000
0000
1000
,
0100
0000
1000
0000
0000
0000
0000
0000
1001
0000
0000
0001
,
0010
0000
0001
0000
0000
0000
0000
0000
1001
0000
0000
1000
,
0100
0000
1000
0000
0000
0000
0000
0000
1001
0000
0000
1001
,
0000
0000
0000
0000
0110
0000
0000
0000
0000
0000
0000
0000
0000
0000
0000
1001
0000
0000
0000
0000
0000
0000
0000
0000
,
0010
0010
1000
1000
,
0100
0100
0001
0001
,
0010
0010
0100
0100
,
0001
0001
0010
0010
,
1000
1000
0100
0100
,
1000
1000
0001
0001
,
0010
0010
1000
1000
,
0001
0000
0000
0001
0000
0000
0110
0000
0000
0000
0000
0010
,
0000
0000
0000
0100
0000
0000
0000
0010
0000
0000
0000
0000
,
0100
0000
0000
0000
0000
0010
0000
0000
0000
0100
0000
0000
,
0000
0000
0010
0000
0000
0000
0100
0000
0000
0000
0010
0000
;
